Filecrypt zeigt vereinzelt Files als "n/a". Die Downloads sind trotzdem komplett.

DNS SERVER AENDERNum der staatlichen Zensur zu umgehen. Sollten wir von eurem Provider geseprrt werden, nutzt den TOR BROWSER oder ändert euren DNS SERVER.

Filmwünsche können bei uns im Forum abgegeben werden

Wir Speichern Nicht




 
 
 
Top Releases
Destination.Wedding.2018.MUL...
Papillon.2017.MULTI.COMPLETE...
Papillon.2017.GERMAN.DL.1080...
The.Bouncer.2018.German.AC3....
The.Bouncer.2018.German.AC3....
Belle.und.Sebastian.Freunde....
Papillon.2017.GERMAN.720p.Bl...
Belle.und.Sebastian.Freunde....
Predator.Upgrade.German.DL.A...
Predator.Upgrade.German.DL.A...

Cinedubs
Halloween.German.DL.AC3.Dubb...
Halloween.German.DL.AC3.Dubb...
Freaky.Friday.German.DL.AC3....
Freaky.Friday.German.DL.AC3....
Jupiters.Moon.2017.GERMAN.AC...
Jupiters.Moon.2017.GERMAN.AC...
Venom.German.DL.AC3.Dubbed.1...
Venom.German.DL.AC3.Dubbed.7...
Das.Haus.der.geheimnisvollen...
Das.Haus.der.geheimnisvollen...

Neuerscheinungen 2017-18
Die.Pyramide.des.Sonnengotte...
Der.Schatz.der.Azteken.1965....
Gold.1934.German.COMPLETE.BL...
Schneefloeckchen.2017.COMPLE...
Belle.und.Sebastian.Freunde....
Jeepers.Creepers.II.2003.DUA...
Liliane.Susewind.Ein.tierisc...
Boarding.School.2018.German....
Liliane.Susewind.Ein.tierisc...
Liliane.Susewind.Ein.tierisc...

XXX
Bang.That.Ass.XXX.720p.WEBRi...
Bang.That.Ass.XXX.1080p.WEBR...
ConorCoxxx.18.03.30.Penny.Je...
SugarCookie.18.05.29.Jimena....
Blacked.18.11.26.Misha.Cross...
SweetheartVideo.Wifey.XXX.72...
ChicasLoca.18.11.26.Sandra.W...
ATKHairy.18.11.19.Kahlista.S...
BlaBlaCum.18.11.26.Lucia.Fer...
Sweet18.18.11.19.Liv.Revampe...
1000Facials.18.11.26.Lexi.Lo...
SweetheartVideo.18.11.19.Mer...
Cosmid.18.11.25.Cherry.Bond....
Twistys.18.11.19.Eliza.Ibarr...
AuntJudys.18.11.23.Afeena.Fu...
Bang.RealTeens.18.11.26.Paig...
ConorCoxxx.18.03.23.Savana.S...
SugarCookie.18.05.27.Stefani...
Babes.18.11.26.Elena.Koshka....
Bang.RealTeens.18.11.19.Harm...

3D
The.Art.of.Flight.3D.2011.Ge...
The.End.Of.The.World.3D.2010...
The.First.Avenger.Civil.War....
Die.Unglaublichen.2.2018.3D....
Skyscraper.3D.2018.MULTi.COM...
Ant-Man.And.The.Wasp.3D.2018...
Ant.Man.and.the.Wasp.3D.2018...
Die.Unglaublichen.2.3D.2018....
Die.Unglaublichen.2.2018.3D....
Die.Unglaublichen.2.2018.3D....
Sharknado.6.The.Last.One.3D....
Deep.Kleine.Helden.der.Tiefs...
Deep.3D.2017.MULTI.COMPLETE....
Detective.Dee.und.die.Legend...
Detective.Dee.und.die.Legend...

Old_Stuff
Akte.X.S03.German.DTS.DL.108...
Dunkirk.1958.COMPLETE.BLURAY...
Das.Wunder.von.Manhattan.199...
The.Amazing.Spiderman.2.Rise...
Rise.of.the.Predator.2014.Ge...
Detective.Dee.und.das.Geheim...
Detective.Dee.Und.Der.Fluch....
Ghost.Rider.Spirit.of.Vengea...
Species.IV.Das.Erwachen.2007...
Species.IV.Das.Erwachen.2007...
Hotel.Transsilvanien.2012.Ge...
The.Dead.2010.German.DL.1080...
The.Dead.2.India.2013.German...
Britney.Spears.Live.The.Femm...
Buffy.The.Vampire.Slayer.199...

Filme
Arabische.Naechte.1942.Germa...
Jim.Knopf.und.Lukas.der.Loko...
The.Handmaids.Tale.S02.COMPL...
Swedish.Dicks.S02.GERMAN.720...
Power.2014.S05.German.DL.DUB...
Power.2014.S05.German.DL.DUB...
Shut.Eye.S01.German.DD20.DL....
Shut.Eye.S01.German.DD20.DL....
Arachnoquake.German.2012.DL....
BuyBust.2018.German.1080p.Bl...
Vikings.S05.German.DD+51.DL....
Vikings.S05.German.DD+51.DL....
Arahan.2004.German.1080p.Blu...
Ardennes.Fury.Die.letzte.Sch...
Armed.And.Deadly.2011.German...
Armee.der.Finsternis.KINOFAS...
The.Handmaids.Tale.S02.COMPL...
MacGyver.1985.S01.COMPLETE.G...
Vikings.S05.GERMAN.1080p.Web...
Girls.Night.Out.2017.German....
Vikings.S05.GERMAN.720p.WebH...
Echoes.Stimmen.aus.der.Zwisc...
Curve.2015.German.DL.AC3.108...
Willkommen.zu.Hause.Roscoe.J...

 
 
Jim.Knopf.und.Lukas.der.Lokomotivfuehrer.2018.German.1080p.BluRay.x264-BluRHD

Jahr: 2018
Genre: Komödie, Fantasy
Sprache: Deutsch DTS
Laufzeit: 1h 49mn
Bitrate: 9 680 Kbps
Format: MKV
Größe: 7.42 GiB
Release:

Beschreibung:

Irgendwo im weiten Meer liegt die Insel Lummerland, auf der genau vier Menschen wohnen: König Alfons der Viertel-vor-Zwölfte (Uwe Ochsenknecht) und seine drei Untertanen: Lokomotivführer Lukas (Henning Baum), Ladenbesitzerin Frau Waas (Annette Frier) und Herr Ärmel (Christoph Maria Herbst). Als der Postbote (Volker Zack Michalowski) dann eines Tages ein falsch adressiertes Paket abliefert, ist die kleine Insel um einen Bewohner reicher – um ein kleines Kind namens Jim Knopf. Einige Jahre später ist Jim (jetzt: Solomon Gordon) zu einem aktiven Jungen herangewachsen, der bei Lukas in die Lokomotivführer-Lehre gegangen ist. Doch weil sich König Alfons Sorgen über eine mögliche Überbevölkerung von Lummerland macht und Lukas‘ Lokomotive Emma stilllegen will, brechen Lukas und Jim gemeinsam mit Emma in ein Abenteuer auf, bei dem sie auf Piraten, Drachen und den Kaiser von Mandala treffen…



Complete name                            : bhd-jkuldl-1080p.mkv
Format                                   : Matroska
Format version                           : Version 2
File size                                : 7.42 GiB
Duration                                 : 1h 49mn
Overall bit rate                         : 9 680 Kbps
Movie name                               : Jim.Knopf.und.Lukas.der.Lokomotivfuehrer.2018.German.1080p.TrueHD.BluRay.AVC.Remux-pmHD
Encoded date                             : UTC 2018-11-24 11:10:52
Writing application                      : mkvmerge v4.5.0 ('Speed of Light') gebaut am Feb  1 2011 02:10:32
Writing library                          : libebml v1.2.0 + libmatroska v1.1.0

Video
ID                                       : 1
Format                                   : AVC
Format/Info                              : Advanced Video Codec
Format profile                           : High@L4.1
Format settings, CABAC                   : Yes
Format settings, ReFrames                : 4 frames
Codec ID                                 : V_MPEG4/ISO/AVC
Duration                                 : 1h 49mn
Bit rate                                 : 7 978 Kbps
Width                                    : 1 920 pixels
Height                                   : 800 pixels
Display aspect ratio                     : 2.40:1
Frame rate mode                          : Constant
Frame rate                               : 23.976 fps
Color space                              : YUV
Chroma subsampling                       : 4:2:0
Bit depth                                : 8 bits
Scan type                                : Progressive
Bits/(Pixel*Frame)                       : 0.217
Stream size                              : 6.12 GiB (82%)
Writing library                          : x264 core 157 r2935 545de2f
Encoding settings                        : cabac=1 / ref=5 / deblock=1:-1:-1 / analyse=0x3:0x113 / me=hex / subme=8 / psy=1 / psy_rd=1.00:0.15 / mixed_ref=1 / me_range=16 / chroma_me=1 / trellis=2 / 8x8dct=1 / cqm=0 / deadzone=21,11 / fast_pskip=1 / chroma_qp_offset=-3 / threads=25 / lookahead_threads=4 / sliced_threads=0 / nr=0 / decimate=1 / interlaced=0 / bluray_compat=0 / constrained_intra=0 / bframes=3 / b_pyramid=1 / b_adapt=2 / b_bias=0 / direct=3 / weightb=1 / open_gop=0 / weightp=2 / keyint=240 / keyint_min=23 / scenecut=40 / intra_refresh=0 / rc_lookahead=50 / rc=crf / mbtree=1 / crf=18.0 / qcomp=0.60 / qpmin=0 / qpmax=69 / qpstep=4 / ip_ratio=1.40 / aq=1:1.00
Default                                  : Yes
Forced                                   : No

Audio
ID                                       : 2
Format                                   : DTS
Format/Info                              : Digital Theater Systems
Mode                                     : 16
Format settings, Endianness              : Big
Codec ID                                 : A_DTS
Duration                                 : 1h 49mn
Bit rate mode                            : Constant
Bit rate                                 : 1 509 Kbps
Channel(s)                               : 6 channels
Channel positions                        : Front: L C R, Side: L R, LFE
Sampling rate                            : 48.0 KHz
Bit depth                                : 16 bits
Compression mode                         : Lossy
Delay relative to video                  : 11ms
Stream size                              : 1.16 GiB (16%)
Title                                    : German
Language                                 : German
Default                                  : Yes
Forced                                   : No

Text #1
ID                                       : 3
Format                                   : VobSub
Muxing mode                              : zlib
Codec ID                                 : S_VOBSUB
Codec ID/Info                            : The same subtitle format used on DVDs
Title                                    : German full
Language                                 : German
Default                                  : No
Forced                                   : No

Text #2
ID                                       : 4
Format                                   : VobSub
Muxing mode                              : zlib
Codec ID                                 : S_VOBSUB
Codec ID/Info                            : The same subtitle format used on DVDs
Title                                    : English full
Language                                 : English
Default                                  : No
Forced                                   : No


Download:
Share Online Share OnlineShare OnlineShare Online
 

Kommentare