Filecrypt zeigt vereinzelt Files als "n/a". Die Downloads sind trotzdem komplett.

DNS SERVER AENDERNum der staatlichen Zensur zu umgehen. Sollten wir von eurem Provider geseprrt werden, nutzt den TOR BROWSER oder ändert euren DNS SERVER.

Filmwünsche können bei uns im Forum abgegeben werden

Wir Speichern Nicht




 
 
 
Top Releases
Feinde.Hostiles.2017.DUAL.CO...
The.Miracle.Season.Ihr.groes...
The.Miracle.Season.Ihr.groes...
The.Miracle.Season.Ihr.groes...
Le.Jeu.Nichts.zu.verbergen.2...
Le.Jeu.Nichts.zu.verbergen.2...
Cam.2018.German.DL.1080p.WEB...
Cam.2018.German.DL.720p.WEB....
Teen.Titans.Go.To.the.Movies...
The.Ballad.of.Buster.Scruggs...

Cinedubs
The.Happytime.Murders.Kein.S...
The.Happytime.Murders.Kein.S...
Peppermint.Angel.of.Vengeanc...
Peppermint.Angel.of.Vengeanc...
The.Nun.German.AC3D.DL.1080p...
Christopher.Robin.German.DL....
Christopher.Robin.German.DL....
A.Star.Is.Born.German.DL.AC3...
A.Star.Is.Born.German.DL.AC3...
Mission.Impossible.Fallout.G...

Neuerscheinungen 2017-18
Cliffhanger.Nur.die.Starken....
Cliffhanger.Nur.die.Starken....
Devils.Gate.Pforte.zur.Hoell...
Devils.Gate.Pforte.zur.Hoell...
Beautiful.People.2014.German...
Immortal.Wars.Nur.der.Staerk...
Beautiful.People.2014.DUAL.C...
Devils.Gate.Pforte.zur.Hoell...
Night.Of.The.Demons.1988.DUA...
Africa.Addio.1966.DUAL.COMPL...

XXX
Naughty.Threesomes.12.XXX.72...
Naughty.Threesomes.12.XXX.10...
NHLPCentral.18.05.03.French....
NuruMassage.18.10.31.Isabell...
MyFriendsHotMom.18.10.31.Bri...
MetArt.18.10.28.Lola.Chic.Se...
MyVeryFirstTime.18.10.28.Asp...
MyFirstSexTeacher.18.10.28.K...
Nubiles.18.10.31.Katy.Vi.Lus...
NHLPCentral.18.05.10.Tracy.R...
NHLPCentral.18.05.14.Satine....
LustyGrandmas.18.04.25.Malya...
LustyGrandmas.18.04.19.Dolly...
Nubiles.18.10.30.Aria.Logan....
LustyGrandmas.18.04.13.Malya...
MyFriendsHotMom.18.10.29.Bri...
NHLPCentral.18.05.07.Sophia....
Nubiles.18.10.30.Elizabeth.E...
MetArt.18.10.30.Sybil.A.Roma...
MySistersHotFriend.18.10.30....

3D
Die.Unglaublichen.2.2018.3D....
Skyscraper.3D.2018.MULTi.COM...
Ant-Man.And.The.Wasp.3D.2018...
Ant.Man.and.the.Wasp.3D.2018...
Die.Unglaublichen.2.3D.2018....
Die.Unglaublichen.2.2018.3D....
Die.Unglaublichen.2.2018.3D....
Sharknado.6.The.Last.One.3D....
Deep.Kleine.Helden.der.Tiefs...
Deep.3D.2017.MULTI.COMPLETE....
Detective.Dee.und.die.Legend...
Detective.Dee.und.die.Legend...
Skyscraper.3D.German.DL.AC3....
Ant-Man.and.the.Wasp.2018.3D...
Jurassic.World.Das.gefallene...

Old_Stuff
Detective.Dee.und.das.Geheim...
Detective.Dee.Und.Der.Fluch....
Ghost.Rider.Spirit.of.Vengea...
Species.IV.Das.Erwachen.2007...
Species.IV.Das.Erwachen.2007...
Hotel.Transsilvanien.2012.Ge...
The.Dead.2010.German.DL.1080...
The.Dead.2.India.2013.German...
Britney.Spears.Live.The.Femm...
Buffy.The.Vampire.Slayer.199...
IMAX.Ride.Around.The.World.2...
Schimanski.-.Duisburg.Ruhror...
Akte.X.S02.German.DTS.DL.108...
How.I.Met.Your.Mother.S02.Ge...
Akte.X.S01.German.DTS.DL.108...

Filme
Selfless.2015.German.DL.1080...
Full.Speed.2016.German.1080p...
Plan.B.Scheiss.auf.Plan.A.20...
Unter.deutschen.Betten.2017....
Nevada.Smith.1966.German.108...
Herr.Bello.2007.German.1080p...
Narcos.Mexico.S01.COMPLETE.G...
Chennai.Express.2013.German....
Querelle.Ein.Pakt.mit.dem.Te...
Die.Fuersten.der.Dunkelheit....
Blindspot.S03.German.DL.DUBB...
Blindspot.S03.German.DL.DUBB...
Der.Baum.der.Helden.2010.Ger...
Narcos.Mexico.S01.COMPLETE.G...
The.Walking.Dead.S09.GERMAN....
The.Walking.Dead.S09.GERMAN....
Gar.kein.Sex.mehr.1988.Germa...
Cherry.2000.1987.German.DL.1...
Treck.nach.Missouri.1988.Ger...
Tremors.4.Wie.alles.begann.2...
Tremors.3.Die.neue.Brut.2001...
Tremors.2.Die.Rueckkehr.der....
Tremors.Im.Land.der.Raketenw...
Beautiful.People.2014.German...

 
 
Selfless.2015.German.DL.1080p.BluRay.x264.iNTERNAL-VideoStar

Jahr: 2015
Genre: Action, Sci-Fi
Sprache: Deutsch DTS | Englisch DTS
Laufzeit: 1h 56mn
Bitrate: 6 184 Kbps
Format: MKV
Größe: 5.05 GiB
Release:

Beschreibung:

“Nervenzerreißender Thrill in einer schönen neuen Welt. Der milliardenschwere Unternehmer Damian erfährt, dass er unheilbar an Krebs erkrankt ist, aus dem Grund begibt er sich in die Hände einer geheimen Organisation. Um seine Lebenszeit zu verlängern, lässt er sein Bewusstsein in einen anderen, jüngeren Körper übertragen. Das Experiment glückt und der wieder junge Damian beginnt unter neuer Identität in einer anderen Stadt, die gewonnene Zeit in vollen Zügen zu genießen. Doch die schöne, heile Welt bekommt Risse, als er von wirren Träumen geplagt wird. Während Damian diesen Visionen auf den Grund geht, muss er erneut um sein Leben fürchten, denn das lukrative Geheimnis der Organisation kann nicht kampflos aufgegeben werden …”



Complete name                            : vs-selfless.1080p.mkv
Format                                   : Matroska
Format version                           : Version 4 / Version 2
File size                                : 5.05 GiB
Duration                                 : 1h 56mn
Overall bit rate                         : 6 184 Kbps
Encoded date                             : UTC 2018-11-20 02:29:42
Writing application                      : mkvmerge v10.0.0 ('To Drown In You') 64bit
Writing library                          : libebml v1.3.4 + libmatroska v1.4.5
DURATION                                 : 01:56:57.995000000
NUMBER_OF_FRAMES                         : 657937
NUMBER_OF_BYTES                          : 1323769244
_STATISTICS_WRITING_APP                  : mkvmerge v10.0.0 ('To Drown In You') 64bit
_STATISTICS_WRITING_DATE_UTC             : 2018-11-20 02:29:42
_STATISTICS_TAGS                         : BPS DURATION NUMBER_OF_FRAMES NUMBER_OF_BYTES

Video
ID                                       : 1
Format                                   : AVC
Format/Info                              : Advanced Video Codec
Format profile                           : High@L4.1
Format settings, CABAC                   : Yes
Format settings, ReFrames                : 5 frames
Codec ID                                 : V_MPEG4/ISO/AVC
Duration                                 : 1h 56mn
Bit rate                                 : 3 043 Kbps
Width                                    : 1 920 pixels
Height                                   : 816 pixels
Display aspect ratio                     : 2.35:1
Frame rate mode                          : Constant
Frame rate                               : 23.976 fps
Color space                              : YUV
Chroma subsampling                       : 4:2:0
Bit depth                                : 8 bits
Scan type                                : Progressive
Bits/(Pixel*Frame)                       : 0.081
Stream size                              : 2.49 GiB (49%)
Writing library                          : x264 core 157 r2935 545de2f
Encoding settings                        : cabac=1 / ref=5 / deblock=1:-1:-1 / analyse=0x3:0x133 / me=umh / subme=7 / psy=1 / psy_rd=1.00:0.15 / mixed_ref=1 / me_range=16 / chroma_me=1 / trellis=2 / 8x8dct=1 / cqm=0 / deadzone=21,11 / fast_pskip=0 / chroma_qp_offset=-3 / threads=9 / lookahead_threads=1 / sliced_threads=0 / nr=0 / decimate=1 / interlaced=0 / bluray_compat=0 / constrained_intra=0 / bframes=3 / b_pyramid=2 / b_adapt=2 / b_bias=0 / direct=3 / weightb=1 / open_gop=0 / weightp=2 / keyint=250 / keyint_min=23 / scenecut=40 / intra_refresh=0 / rc_lookahead=60 / rc=crf / mbtree=1 / crf=20.0 / qcomp=0.60 / qpmin=0 / qpmax=69 / qpstep=4 / ip_ratio=1.40 / aq=1:1.00
Default                                  : Yes
Forced                                   : No

Audio #1
ID                                       : 2
Format                                   : DTS
Format/Info                              : Digital Theater Systems
Mode                                     : 16
Format settings, Endianness              : Big
Codec ID                                 : A_DTS
Duration                                 : 1h 56mn
Bit rate mode                            : Constant
Bit rate                                 : 1 509 Kbps
Channel(s)                               : 6 channels
Channel positions                        : Front: L C R, Side: L R, LFE
Sampling rate                            : 48.0 KHz
Bit depth                                : 24 bits
Compression mode                         : Lossy
Stream size                              : 1.23 GiB (24%)
Language                                 : German
Default                                  : Yes
Forced                                   : No

Audio #2
ID                                       : 3
Format                                   : DTS
Format/Info                              : Digital Theater Systems
Mode                                     : 16
Format settings, Endianness              : Big
Codec ID                                 : A_DTS
Duration                                 : 1h 56mn
Bit rate mode                            : Constant
Bit rate                                 : 1 509 Kbps
Channel(s)                               : 6 channels
Channel positions                        : Front: L C R, Side: L R, LFE
Sampling rate                            : 48.0 KHz
Bit depth                                : 24 bits
Compression mode                         : Lossy
Stream size                              : 1.23 GiB (24%)
Language                                 : English
Default                                  : No
Forced                                   : No


Download:
Share Online Share OnlineShare OnlineShare Online
 

Kommentare