Filecrypt zeigt vereinzelt Files als "n/a". Die Downloads sind trotzdem komplett.

DNS SERVER AENDERNum der staatlichen Zensur zu umgehen. Sollten wir von eurem Provider geseprrt werden, nutzt den TOR BROWSER oder ändert euren DNS SERVER.

Filmwünsche können bei uns im Forum abgegeben werden

Wir Speichern Nicht




 
 
 
Top Releases
The.Miracle.Season.Ihr.groes...
The.Miracle.Season.Ihr.groes...
The.Miracle.Season.Ihr.groes...
Le.Jeu.Nichts.zu.verbergen.2...
Le.Jeu.Nichts.zu.verbergen.2...
Cam.2018.German.DL.1080p.WEB...
Cam.2018.German.DL.720p.WEB....
Teen.Titans.Go.To.the.Movies...
The.Ballad.of.Buster.Scruggs...
Teen.Titans.Go.To.the.Movies...

Cinedubs
Christopher.Robin.German.DL....
Christopher.Robin.German.DL....
A.Star.Is.Born.German.DL.AC3...
A.Star.Is.Born.German.DL.AC3...
Mission.Impossible.Fallout.G...
Mission.Impossible.Fallout.G...
Sicario.2.2018.German.DL.AC3...
Juliet.Naked.2018.GERMAN.DL....
Juliet.Naked.2018.GERMAN.DL....
10x10.2018.German.AC3D.DL.10...

Neuerscheinungen 2017-18
Devils.Gate.Pforte.zur.Hoell...
Devils.Gate.Pforte.zur.Hoell...
Beautiful.People.2014.German...
Immortal.Wars.Nur.der.Staerk...
Beautiful.People.2014.DUAL.C...
Devils.Gate.Pforte.zur.Hoell...
Night.Of.The.Demons.1988.DUA...
Africa.Addio.1966.DUAL.COMPL...
In.Darkness.2018.MULTI.COMPL...
Boarding.School.2018.COMPLET...

XXX
NetVideoGirls.18.10.23.Janey...
NHLPCentral.18.06.21.Brook.L...
LustyGrandmas.18.03.22.Marsh...
POVPornstars.18.10.30.Lila.M...
POVLife.18.10.29.Skylar.Vale...
NetGirl.18.10.17.Gemma.And.A...
NewSensations.18.10.29.Angel...
Nubiles.18.10.29.Cleo.Mijare...
OldYoungLesbianLove.18.10.29...
NHLPCentral.18.06.14.Honour....
NubileFilms.18.10.29.Riley.S...
LustyGrandmas.18.04.02.Sila....
PlayboyPlus.18.10.29.Jenessa...
Old-n-Young.18.10.27.Blue.Sk...
NewSensations.18.10.31.Emily...
OnlyBlowJob.18.10.04.Rose.XX...
PlayboyPlus.18.10.28.Playmat...
LustyGrandmas.18.04.08.Viol....
PixAndVideo.18.10.29.Marica....
Passion-HD.18.10.31.Megan.Wi...

3D
Die.Unglaublichen.2.2018.3D....
Skyscraper.3D.2018.MULTi.COM...
Ant-Man.And.The.Wasp.3D.2018...
Ant.Man.and.the.Wasp.3D.2018...
Die.Unglaublichen.2.3D.2018....
Die.Unglaublichen.2.2018.3D....
Die.Unglaublichen.2.2018.3D....
Sharknado.6.The.Last.One.3D....
Deep.Kleine.Helden.der.Tiefs...
Deep.3D.2017.MULTI.COMPLETE....
Detective.Dee.und.die.Legend...
Detective.Dee.und.die.Legend...
Skyscraper.3D.German.DL.AC3....
Ant-Man.and.the.Wasp.2018.3D...
Jurassic.World.Das.gefallene...

Old_Stuff
Detective.Dee.und.das.Geheim...
Detective.Dee.Und.Der.Fluch....
Ghost.Rider.Spirit.of.Vengea...
Species.IV.Das.Erwachen.2007...
Species.IV.Das.Erwachen.2007...
Hotel.Transsilvanien.2012.Ge...
The.Dead.2010.German.DL.1080...
The.Dead.2.India.2013.German...
Britney.Spears.Live.The.Femm...
Buffy.The.Vampire.Slayer.199...
IMAX.Ride.Around.The.World.2...
Schimanski.-.Duisburg.Ruhror...
Akte.X.S02.German.DTS.DL.108...
How.I.Met.Your.Mother.S02.Ge...
Akte.X.S01.German.DTS.DL.108...

Filme
Feet.2008.German.AC3D.DL.108...
Mission.Impossible.Fallout.2...
iZombie.S04.German.DD51.Dubb...
iZombie.S04.German.DD51.Dubb...
Night.Of.The.Demons.GERMAN.1...
Arrow.S06.GERMAN.DL.1080p.HD...
Arrow.S06.GERMAN.DL.720p.HDT...
Night.Of.The.Demons.GERMAN.1...
Cloverfield.2008.German.DL.1...
Willy.Wonka.und.die.Schokola...
Krypton.S01.German.DD51.Dubb...
Krypton.S01.GERMAN.DUBBED.72...
Humans.S03.German.DD20.Dubbe...
Humans.S03.GERMAN.DL.720p.HD...
4.Blocks.S02.GERMAN.1080p.HD...
4.Blocks.S02.GERMAN.720p.HDT...
You.Me.and.Dupree.-.Ich.Du.u...
Spider-Man.3.2007.UHD2BD.7.1...
Kick.It.Like.Beckham.2002.Ge...
2001.Odyssee.im.Weltraum.196...
Operation.Red.Sea.2018.Germa...
Power.2014.S05.German.DL.DUB...
Power.2014.S05.German.DL.DUB...
Ballers.S04.GERMAN.DUBBED.DL...

 
 
Beautiful.People.2014.German.720p.BluRay.x264-CHECKMATE

Jahr: 2014
Genre: Horror
Sprache: Deutsch DTS
Laufzeit: 1h 12mn
Bitrate: 3 370 Kbps
Format: MKV
Größe: 1.70 GiB
Release:

Beschreibung:

Drei sadistische Gangster haben es sich zum Ziel gesetzt, wohlhabende Familien in ihren eigenen Häusern zu überfallen, sie auszurauben und schließlich kaltblütig zu ermorden. Als sie aber das Grundstück des Bio-Mediziners John Pontecorvo (David White) aufsuchen, nimmt das Geschehen einen überraschenden Verlauf: Plötzlich bekommen es die Verbrecher mit einer Horde von Monstern zu tun. In diesen Momenten der Angts offenbart nun jede Person, die sich im Haus befindet, ihr wahres Gesicht.



Complete name                            : checkmate-beautiful.people.720p.mkv
Format                                   : Matroska
Format version                           : Version 4 / Version 2
File size                                : 1.70 GiB
Duration                                 : 1h 12mn
Overall bit rate                         : 3 370 Kbps
Encoded date                             : UTC 2018-11-18 13:03:36
Writing application                      : mkvmerge v27.0.0 ('Metropolis') 64-bit
Writing library                          : libebml v1.3.6 + libmatroska v1.4.9
DURATION                                 : 01:12:25.984000000
NUMBER_OF_FRAMES                         : 407436
NUMBER_OF_BYTES                          : 819761232
_STATISTICS_WRITING_APP                  : mkvmerge v27.0.0 ('Metropolis') 64-bit
_STATISTICS_WRITING_DATE_UTC             : 2018-11-18 13:03:36
_STATISTICS_TAGS                         : BPS DURATION NUMBER_OF_FRAMES NUMBER_OF_BYTES

Video
ID                                       : 1
Format                                   : AVC
Format/Info                              : Advanced Video Codec
Format profile                           : High@L4.1
Format settings, CABAC                   : Yes
Format settings, ReFrames                : 5 frames
Codec ID                                 : V_MPEG4/ISO/AVC
Duration                                 : 1h 12mn
Bit rate                                 : 1 794 Kbps
Width                                    : 1 280 pixels
Height                                   : 552 pixels
Display aspect ratio                     : 2.35:1
Frame rate mode                          : Constant
Frame rate                               : 24.000 fps
Color space                              : YUV
Chroma subsampling                       : 4:2:0
Bit depth                                : 8 bits
Scan type                                : Progressive
Bits/(Pixel*Frame)                       : 0.106
Stream size                              : 929 MiB (53%)
Writing library                          : x264 core 155 r2901 7d0ff22
Encoding settings                        : cabac=1 / ref=5 / deblock=1:-2:-2 / analyse=0x3:0x133 / me=umh / subme=7 / psy=1 / psy_rd=1.00:0.00 / mixed_ref=1 / me_range=16 / chroma_me=1 / trellis=2 / 8x8dct=1 / cqm=0 / deadzone=21,11 / fast_pskip=0 / chroma_qp_offset=-2 / threads=12 / lookahead_threads=2 / sliced_threads=0 / nr=0 / decimate=1 / interlaced=0 / bluray_compat=0 / constrained_intra=0 / bframes=3 / b_pyramid=2 / b_adapt=1 / b_bias=0 / direct=1 / weightb=1 / open_gop=0 / weightp=1 / keyint=250 / keyint_min=24 / scenecut=40 / intra_refresh=0 / rc_lookahead=40 / rc=crf / mbtree=1 / crf=20.0 / qcomp=0.60 / qpmin=0 / qpmax=69 / qpstep=4 / ip_ratio=1.40 / aq=1:1.00
Language                                 : English
Default                                  : Yes
Forced                                   : No
DURATION                                 : 01:12:26.000000000
NUMBER_OF_FRAMES                         : 104304
NUMBER_OF_BYTES                          : 1009572918
_STATISTICS_WRITING_APP                  : mkvmerge v27.0.0 ('Metropolis') 64-bit
_STATISTICS_WRITING_DATE_UTC             : 2018-11-18 13:03:36
_STATISTICS_TAGS                         : BPS DURATION NUMBER_OF_FRAMES NUMBER_OF_BYTES

Audio
ID                                       : 2
Format                                   : DTS
Format/Info                              : Digital Theater Systems
Mode                                     : 16
Format settings, Endianness              : Big
Codec ID                                 : A_DTS
Duration                                 : 1h 12mn
Bit rate mode                            : Constant
Bit rate                                 : 1 509 Kbps
Channel(s)                               : 6 channels
Channel positions                        : Front: L C R, Side: L R, LFE
Sampling rate                            : 48.0 KHz
Bit depth                                : 24 bits
Compression mode                         : Lossy
Stream size                              : 782 MiB (45%)
Title                                    : German
Language                                 : German
Default                                  : Yes
Forced                                   : Yes


Download:
Share Online Share OnlineShare OnlineShare Online
 

Kommentare