Filecrypt zeigt vereinzelt Files als "n/a". Die Downloads sind trotzdem komplett.

DNS SERVER AENDERNum der staatlichen Zensur zu umgehen. Sollten wir von eurem Provider geseprrt werden, nutzt den TOR BROWSER oder ändert euren DNS SERVER.

Filmwünsche können bei uns im Forum abgegeben werden

Wir Speichern Nicht




 
 
 
Top Releases
Mandy.2018.MULTi.COMPLETE.BL...
Zoe.2018.German.AC3.DL.1080p...
Herrliche.Zeiten.2018.German...
Skyscraper.2018.German.AC3.D...
Mandy.2018.German.720p.BluRa...
Mandy.2018.German.DL.1080p.B...
Die.Farbe.des.Horizonts.2018...
Die.Farbe.des.Horizonts.2018...
Die.Farbe.des.Horizonts.2018...
Predestination.2014.German.A...

Cinedubs
Christopher.Robin.German.DL....
Christopher.Robin.German.DL....
A.Star.Is.Born.German.DL.AC3...
A.Star.Is.Born.German.DL.AC3...
Mission.Impossible.Fallout.G...
Mission.Impossible.Fallout.G...
Sicario.2.2018.German.DL.AC3...
Juliet.Naked.2018.GERMAN.DL....
Juliet.Naked.2018.GERMAN.DL....
10x10.2018.German.AC3D.DL.10...

Neuerscheinungen 2017-18
Hardcover.1989.German.DL.108...
O.Sexuelles.Verlangen.2017.D...
O.Sexuelles.Verlangen.2017.G...
O.Sexuelles.Verlangen.2017.G...
Christmas.With.A.View.2018.G...
Christmas.With.A.View.2018.G...
Our.Evil.2017.GERMAN.1080p.B...
Our.Evil.2017.GERMAN.720p.Bl...
Bent.Korruption.kennt.keine....
Bent.Korruption.kennt.keine....

XXX
Teens.On.Sex.Carnage.9.XXX.1...
Teens.On.Sex.Carnage.9.XXX.7...
StepSiblingsCaught.18.10.29....
SweetSinner.18.10.30.Syren.D...
Shoplyfter.18.10.31.Scarlett...
VickyAtHome.18.10.24.Woke.Up...
SweetheartVideo.18.10.29.Apr...
The.Flesh.Game.XXX.1080p.WEB...
SneakySex.18.10.31.Bonnie.Ro...
TeensLikeItBig.18.10.28.Rebe...
GirlsDoPorn.E475.18.Years.Ol...
LustyGrandmas.18.02.01.Malya...
The.Flesh.Game.XXX.720p.WEBR...
Shinnyu.Shain.No.Oshigoto.10...
GirlsDoPorn.E472.20.Years.Ol...
TeenFidelity.E341.Kenzie.Kai...
VIPissy.18.10.29.Claudia.Mac...
LustyGrandmas.18.01.25.Mimi....
Spizoo.18.10.29.Infexxted.XX...
TeenPies.18.10.31.Avery.Moon...

3D
Skyscraper.3D.2018.MULTi.COM...
Ant-Man.And.The.Wasp.3D.2018...
Ant.Man.and.the.Wasp.3D.2018...
Die.Unglaublichen.2.3D.2018....
Die.Unglaublichen.2.2018.3D....
Die.Unglaublichen.2.2018.3D....
Sharknado.6.The.Last.One.3D....
Deep.Kleine.Helden.der.Tiefs...
Deep.3D.2017.MULTI.COMPLETE....
Detective.Dee.und.die.Legend...
Detective.Dee.und.die.Legend...
Skyscraper.3D.German.DL.AC3....
Ant-Man.and.the.Wasp.2018.3D...
Jurassic.World.Das.gefallene...
Jurassic.World.Das.gefallene...

Old_Stuff
Detective.Dee.und.das.Geheim...
Detective.Dee.Und.Der.Fluch....
Ghost.Rider.Spirit.of.Vengea...
Species.IV.Das.Erwachen.2007...
Species.IV.Das.Erwachen.2007...
Hotel.Transsilvanien.2012.Ge...
The.Dead.2010.German.DL.1080...
The.Dead.2.India.2013.German...
Britney.Spears.Live.The.Femm...
Buffy.The.Vampire.Slayer.199...
IMAX.Ride.Around.The.World.2...
Schimanski.-.Duisburg.Ruhror...
Akte.X.S02.German.DTS.DL.108...
How.I.Met.Your.Mother.S02.Ge...
Akte.X.S01.German.DTS.DL.108...

Filme
Maleika.2017.GERMAN.DOKU.216...
The.Darkest.Minds.Die.Ueberl...
Aus.dem.Dschungel.in.den.Dsc...
Der.Grosse.Diktator.1940.Ger...
Plaesier.1952.German.AC3D.DL...
Die.Truman.Show.1998.German....
Crocodile.Dundee.Extended.Cu...
Valley.Girl.Das.Maedchen.und...
TiMER.2009.German.DL.1080p.B...
Time.to.Kill.1989.German.108...
Time.Rush.2016.German.DL.108...
Time.for.Crime.Zeit.fuer.Bet...
Time.Bandits.German.1981.108...
Wrong.Side.of.Town.2010.Germ...
Time.and.Tide.2000.German.10...
Tigerman.1990.German.DL.1080...
Chinesisches.Roulette.1976.G...
Falling.Up.Liebe.oeffnet.Tue...
Spider-Man.2002.UHD2BD.DL.10...
Der.grosse.Trip.Wild.2014.Ge...
Untote.wie.wir.Man.ist.so.to...
Cliffhanger.Nur.die.Starken....
Moderne.Zeiten.1936.German.D...
Der.Krieg.der.Knoepfe.1962.U...

 
 
Christopher.Robin.German.DL.AC3.Dubbed.720p.BluRay.x264-PsO

Jahr: 2018
Genre: Animation, Komödie
Sprache: Deutsch AC3 | Englisch DTS
Laufzeit: 1h 43mn
Bitrate: 6 397 Kbps
Format: MKV
Größe: 4.64 GiB
Release:

Beschreibung:

Christopher Robin (Ewan McGregor) ist erwachsen geworden. Doch der Junge, der einst mit Winnie Puuh und seinen anderen tierischen Freunden zahllose Abenteuer im Hundertmorgenwald erlebte, führt leider kein glückliches Leben: Er steckt in einem schlecht bezahlten Job fest, mit dem er nicht glücklich ist und bei dem er zu viel arbeiten muss, und vernachlässigt darüber seine Familie, bestehend aus seiner Frau Emily (Hayley Atwell) und Tochter Madeline (Bronte Carmichael). Auch seine Abenteuer mit Winnie Puuh und den anderen sind beinahe in Vergessenheit geraten. Als Christopher Robin dann einen Familienausflug absagen muss, weil sein Chef Keith Winslow (Mark Gatiss) ihn am Wochenende zur Arbeit zwingt, ist er am Tiefpunkt angekommen. Doch da steht auf einmal Winnie Puuh (Stimme im Original: Jim Cummings) vor ihm. Und auch seine Kumpels sind zur Stelle, ihrem alten menschlichen Freund zu zeigen, dass das Leben Spaß machen kann…



Complete name                            : pso-christopherrobin_bd.720p.mkv
Format                                   : Matroska
Format version                           : Version 4 / Version 2
File size                                : 4.64 GiB
Duration                                 : 1h 43mn
Overall bit rate                         : 6 397 Kbps
Encoded date                             : UTC 2018-11-16 01:13:08
Writing application                      : mkvmerge v8.0.0 ('Til The Day That I Die') 64bit
Writing library                          : libebml v1.3.1 + libmatroska v1.4.2
DURATION                                 : 01:40:29.696000000
NUMBER_OF_FRAMES                         : 1821
NUMBER_OF_BYTES                          : 47118
_STATISTICS_WRITING_APP                  : mkvmerge v8.0.0 ('Til The Day That I Die') 64bit
_STATISTICS_WRITING_DATE_UTC             : 2018-11-16 01:13:08
_STATISTICS_TAGS                         : BPS DURATION NUMBER_OF_FRAMES NUMBER_OF_BYTES

Video
ID                                       : 1
Format                                   : AVC
Format/Info                              : Advanced Video Codec
Format profile                           : High@L4.1
Format settings, CABAC                   : Yes
Format settings, ReFrames                : 5 frames
Codec ID                                 : V_MPEG4/ISO/AVC
Duration                                 : 1h 43mn
Bit rate                                 : 4 505 Kbps
Width                                    : 1 280 pixels
Height                                   : 536 pixels
Display aspect ratio                     : 2.40:1
Frame rate mode                          : Constant
Frame rate                               : 23.976 fps
Color space                              : YUV
Chroma subsampling                       : 4:2:0
Bit depth                                : 8 bits
Scan type                                : Progressive
Bits/(Pixel*Frame)                       : 0.274
Stream size                              : 3.18 GiB (68%)
Writing library                          : x264 core 155 r2901 7d0ff22
Encoding settings                        : cabac=1 / ref=5 / deblock=1:0:0 / analyse=0x3:0x113 / me=umh / subme=8 / psy=1 / psy_rd=1.00:0.00 / mixed_ref=1 / me_range=16 / chroma_me=1 / trellis=1 / 8x8dct=1 / cqm=0 / deadzone=21,11 / fast_pskip=1 / chroma_qp_offset=-2 / threads=24 / lookahead_threads=4 / sliced_threads=0 / nr=0 / decimate=1 / interlaced=0 / bluray_compat=0 / constrained_intra=0 / bframes=3 / b_pyramid=2 / b_adapt=1 / b_bias=0 / direct=3 / weightb=1 / open_gop=0 / weightp=2 / keyint=240 / keyint_min=24 / scenecut=40 / intra_refresh=0 / rc_lookahead=50 / rc=2pass / mbtree=1 / bitrate=4505 / ratetol=1.0 / qcomp=0.60 / qpmin=0 / qpmax=69 / qpstep=4 / cplxblur=20.0 / qblur=0.5 / ip_ratio=1.40 / aq=1:1.00
Language                                 : English
Default                                  : Yes
Forced                                   : No
DURATION                                 : 01:43:56.022000000
NUMBER_OF_FRAMES                         : 149515
NUMBER_OF_BYTES                          : 3508771501
_STATISTICS_WRITING_APP                  : mkvmerge v8.0.0 ('Til The Day That I Die') 64bit
_STATISTICS_WRITING_DATE_UTC             : 2018-11-16 01:13:08
_STATISTICS_TAGS                         : BPS DURATION NUMBER_OF_FRAMES NUMBER_OF_BYTES

Audio #1
ID                                       : 2
Format                                   : AC-3
Format/Info                              : Audio Coding 3
Mode extension                           : CM (complete main)
Format settings, Endianness              : Big
Codec ID                                 : A_AC3
Duration                                 : 1h 43mn
Bit rate mode                            : Constant
Bit rate                                 : 384 Kbps
Channel(s)                               : 6 channels
Channel positions                        : Front: L C R, Side: L R, LFE
Sampling rate                            : 48.0 KHz
Bit depth                                : 16 bits
Compression mode                         : Lossy
Delay relative to video                  : 850ms
Stream size                              : 285 MiB (6%)
Language                                 : German
Default                                  : Yes
Forced                                   : Yes

Audio #2
ID                                       : 3
Format                                   : DTS
Format/Info                              : Digital Theater Systems
Mode                                     : 16
Format settings, Endianness              : Big
Codec ID                                 : A_DTS
Duration                                 : 1h 43mn
Bit rate mode                            : Constant
Bit rate                                 : 1 509 Kbps
Channel(s)                               : 6 channels
Channel positions                        : Front: L C R, Side: L R, LFE
Sampling rate                            : 48.0 KHz
Bit depth                                : 24 bits
Compression mode                         : Lossy
Stream size                              : 1.10 GiB (24%)
Language                                 : English
Default                                  : No
Forced                                   : No

Text #1
ID                                       : 4
Format                                   : UTF-8
Codec ID                                 : S_TEXT/UTF8
Codec ID/Info                            : UTF-8 Plain Text
Language                                 : German
Default                                  : No
Forced                                   : No

Text #2
ID                                       : 5
Format                                   : UTF-8
Codec ID                                 : S_TEXT/UTF8
Codec ID/Info                            : UTF-8 Plain Text
Title                                    : English regular
Language                                 : English
Default                                  : No
Forced                                   : No


Download:
Share Online Share OnlineShare OnlineShare Online
 

Kommentare